Select Page

DOWNLOAD torrent Clean torrent

Many people’s lives revolve around the desire for happiness, often from sources that are generally considered dark or evil.

Format: Matrosca

Format version: Version 4 / Version 2

File size: GiB

Duration: 2h.19m

Total bit rate: 1,376 Kbps

Encoded date: UTC 2013-09-14 23:01:59

Writer application: mkvmerge (“You can’t stop me!”) created on Jun 28 ’13 20:09:41

Script library: libebml + libmatroska

Video

ID: 1

Format: MPEG-4 Visual

Formatting Profile: Advanced

Format configuration, BVOP: Yes

Format setting, QPel: No

Format Configuration, GMC: No Warp Point

Format Settings, Array: Default()

Codec ID: V_MS/VFW/FOURCC / XVID

Codec ID/Hint: XviD

Duration: 2h.19m

Transmission speed: 1157Kbps

Width: 720 pixels

Height: 392 pixels

Screen ratio: :1

Frame Rate Mode: Constant

Frames per second: fps

Color space: YUV

Chromatic subsampling: 4:2:0

Bit depth: 8 bits

Scan Type: Progressive

Compression method: lossy

Bits/(pixel*frame):

Stream size: GiB (84%)

Writing library: XviD (UTC 2008-12-04)

Default: Yes

Forced: No

audio

ID: 2

Format: AC-3

Format/Info: Audio encoding 3

Format profile: Dolby Digital

Mode Extension: CM (Full Master)

Format settings, Endianness: Large

Codec ID: A_AC3

Duration: 2h.19m

Bitrate Mode: Constant

Transmission speed: 192Kbps

Channel(s): 2 channels

Channel Positions: Front: L R

Sampling rate: KHz

Bit depth: 16 bits

Compression method: lossy

Stream size: 192 MiB (14%)

English

Default: Yes

Forced: No

text 1

ID: 3

Format: VobSub

Muxing mode: zlib

Codec ID: S_VOBSUB

Codec ID/Info: Same subtitle format used on DVD

English

Default: Yes

Forced: No

Text #2

identity document: 4

Format: VobSub

Muxing mode: zlib

Codec ID: S_VOBSUB

Codec ID/Info: Same subtitle format used on DVD

French

Default: No

Forced: No

Thanks to the original ripper.